[經驗交流]

CUE撥放題

CUE不可撥放請問將從何改起?
纯音乐.-.[口琴天堂.VOL.1].专辑.(APE).ape
纯音乐.-.[口琴天堂.VOL.1].专辑.(APE).cue
________________________________________________
資訊 (CORE) : 啓動時間:281 ms
錯誤 (foo_cue_ex) : 引用的檔案不存在
錯誤 (foo_input_std) : 引用的檔案不存在
錯誤 (foo_cue_ex) : 引用的檔案不存在
錯誤 (foo_input_std) : 引用的檔案不存在
錯誤 (foo_cue_ex) : 引用的檔案不存在
錯誤 (foo_input_std) : 引用的檔案不存在
錯誤 (foo_cue_ex) : 引用的檔案不存在
錯誤 (foo_input_std) : 引用的檔案不存在
錯誤 (foo_cue_ex) : 引用的檔案不存在
錯誤 (foo_input_std) : 引用的檔案不存在
錯誤 (foo_cue_ex) : 引用的檔案不存在
錯誤 (foo_input_std) : 引用的檔案不存在
錯誤 (foo_cue_ex) : 引用的檔案不存在
錯誤 (foo_input_std) : 引用的檔案不存在
錯誤 (foo_cue_ex) : 引用的檔案不存在
錯誤 (foo_input_std) : 引用的檔案不存在
錯誤 (foo_cue_ex) : 引用的檔案不存在
錯誤 (foo_input_std) : 引用的檔案不存在
錯誤 (foo_cue_ex) : 引用的檔案不存在
錯誤 (foo_input_std) : 引用的檔案不存在
錯誤 (foo_cue_ex) : 引用的檔案不存在
錯誤 (foo_input_std) : 引用的檔案不存在
錯誤 (foo_cue_ex) : 引用的檔案不存在
錯誤 (foo_input_std) : 引用的檔案不存在
錯誤 (foo_cue_ex) : 引用的檔案不存在
錯誤 (foo_input_std) : 引用的檔案不存在
錯誤 (foo_cue_ex) : 引用的檔案不存在
錯誤 (foo_input_std) : 引用的檔案不存在
錯誤 (foo_cue_ex) : 引用的檔案不存在
錯誤 (foo_input_std) : 引用的檔案不存在
資訊 (CORE) : 播放檔案->
資訊 (CORE) : 位置: "file://D:\APE\纯音乐 -《口琴天堂VOL 1》(Harmonica Heaven)[APE]\纯音乐.-.[口琴天堂.VOL.1].专辑.(APE).cue" (1)
錯誤 (foo_cue_ex) : 引用的檔案不存在
錯誤 (foo_input_std) : 引用的檔案不存在
錯誤 (CORE) : 開啓檔案錯誤->
資訊 (CORE) : 位置: "file://D:\APE\纯音乐 -《口琴天堂VOL 1》(Harmonica Heaven)[APE]\纯音乐.-.[口琴天堂.VOL.1].专辑.(APE).cue" (1)
__________________________________________________________________________________
CUE內容:
PERFORMER "曾秞氈"
TITLE "諳毞斻"
FILE "曾秞氈.-.[諳毞斻.VOL.1].蚳憮.(APE).ape" WAVE
  TRACK 01 AUDIO
    TITLE "陝坰"
    INDEX 01 00:00:00
  TRACK 02 AUDIO
    TITLE "懦桉齒"
    INDEX 00 03:01:71
    INDEX 01 03:03:71
  TRACK 03 AUDIO
    TITLE "網遢斕"
    INDEX 00 06:37:41
    INDEX 01 06:39:41
  TRACK 04 AUDIO
    TITLE "奧昹樑"
    INDEX 00 11:10:33
    INDEX 01 11:12:32
  TRACK 05 AUDIO
    TITLE "DEVORAB*S THE ME"
    INDEX 00 16:10:50
    INDEX 01 16:12:50
  TRACK 06 AUDIO
    TITLE "鞦祭"
    INDEX 00 19:40:36
    INDEX 01 19:42:36
  TRACK 07 AUDIO
    TITLE "斕藩珨棒腔網柲"
    INDEX 00 23:40:17
    INDEX 01 23:42:17
  TRACK 08 AUDIO
    TITLE "茤鳶單"
    INDEX 00 27:48:41
    INDEX 01 27:50:40
  TRACK 09 AUDIO
    TITLE "甜準森"
    INDEX 00 30:35:37
    INDEX 01 30:37:37
  TRACK 10 AUDIO
    TITLE "JEAN﹛ED FLORETTE"
    INDEX 00 32:51:51
    INDEX 01 32:53:50
  TRACK 11 AUDIO
    TITLE "LE GRISBI"
    INDEX 00 36:38:55
    INDEX 01 36:40:55
  TRACK 12 AUDIO
    TITLE "恲腔乾"
    INDEX 00 39:19:57
    INDEX 01 39:21:55
  TRACK 13 AUDIO
    TITLE "敁珗籟檔"
    INDEX 00 41:42:07
    INDEX 01 41:44:07
  TRACK 14 AUDIO
    TITLE "堎謠碩"
    INDEX 00 45:16:14
    INDEX 01 45:18:14
  TRACK 15 AUDIO
    TITLE "MOTLY AGAINST THE LIGHT"
    INDEX 00 48:44:22
    INDEX 01 48:46:21

[ 本帖最後由 bogo0908 於 2008-5-20 18:33 編輯 ]
喜歡這篇文章嗎?
回覆 2
您需要登入後才可以回帖 登入 | 註冊會員

本版積分規則 回覆 15 個字以上可拿獎勵,
規則詳見此

提示訊息
go_top