[經驗交流]

cue播放錯誤

cue檔無法正常播放,想請問該如何修改?
_____________________________________________
PERFORMER "絆"
TITLE "鏍貉絆 XRCD2"
FILE "鏍貉絆 XRCD2.ape" WAVE
  TRACK 01 AUDIO
    TITLE "掩疻咭腔奀嫖"
    INDEX 01 00:00:00
  TRACK 02 AUDIO
    TITLE "躲扂佽乾扂"
    INDEX 00 02:42:51
    INDEX 01 02:45:25
  TRACK 03 AUDIO
    TITLE "斕腔桉朸"
    INDEX 00 06:26:51
    INDEX 01 06:29:25
  TRACK 04 AUDIO
    TITLE "砑斕腔緊"
    INDEX 00 10:37:31
    INDEX 01 10:40:00
  TRACK 05 AUDIO
    TITLE "橄寁"
    INDEX 00 14:49:51
    INDEX 01 14:52:25
  TRACK 06 AUDIO
    TITLE "扂腔佷癩"
    INDEX 00 19:31:56
    INDEX 01 19:34:25
  TRACK 07 AUDIO
    TITLE "堤"
    INDEX 00 23:18:26
    INDEX 01 23:21:50
  TRACK 08 AUDIO
    TITLE "傾諳"
    INDEX 00 27:10:51
    INDEX 01 27:13:00
  TRACK 09 AUDIO
    TITLE "崋繫夔"
    INDEX 00 30:57:71
    INDEX 01 31:00:25
  TRACK 10 AUDIO
    TITLE "侔斕腔恲"
    INDEX 00 34:27:01
    INDEX 01 34:29:25
  TRACK 11 AUDIO
    TITLE "婬乾扂珨棒"
    INDEX 00 38:42:51
    INDEX 01 38:45:25
  TRACK 12 AUDIO
    TITLE "郅躉"
    INDEX 00 41:56:26
    INDEX 01 41:59:25

[ 本帖最後由 bogo0908 於 2008-11-19 00:52 編輯 ]
喜歡這篇文章嗎?
回覆 2
您需要登入後才可以回帖 登入 | 註冊會員

本版積分規則 回覆 15 個字以上可拿獎勵,
規則詳見此

提示訊息
go_top