[經驗交流]

cue播放問題

Cue檔無法正常播放,想請問該如何修改?謝謝!
==========================================
REM GENRE Pop
REM DATE 2008
REM DISCID 8207E80A
REM COMMENT "ExactAudioCopy v0.99pb4"
PERFORMER "Maria Mena"
TITLE "Cause and Effect"
FILE "Maria Mena - Cause and Effect.wav" WAVE
  TRACK 01 AUDIO
    TITLE "Power Trip Ballad"
    PERFORMER "Maria Mena"
    INDEX 01 00:00:00
  TRACK 02 AUDIO
    TITLE "Belly Up"
    PERFORMER "Maria Mena"
    INDEX 01 03:59:34
  TRACK 03 AUDIO
    TITLE "All This Time (Pick-Me-Up Song)"
    PERFORMER "Maria Mena"
    INDEX 01 08:05:07
  TRACK 04 AUDIO
    TITLE "Cause and Effect"
    PERFORMER "Maria Mena"
    INDEX 01 11:16:45
  TRACK 05 AUDIO
    TITLE "I`m On Your Side"
    PERFORMER "Maria Mena"
    INDEX 01 14:29:47
  TRACK 06 AUDIO
    TITLE "Eyesore"
    PERFORMER "Maria Mena"
    INDEX 01 17:33:21
  TRACK 07 AUDIO
    TITLE "Where Were You"
    PERFORMER "Maria Mena"
    INDEX 01 20:48:56
  TRACK 08 AUDIO
    TITLE "I`m in Love"
    PERFORMER "Maria Mena"
    INDEX 01 24:05:13
  TRACK 09 AUDIO
    TITLE "Self-Fulfilling Prophecy"
    PERFORMER "Maria Mena"
    INDEX 01 27:03:55
  TRACK 10 AUDIO
    TITLE "Dear .."
    PERFORMER "Maria Mena"
    INDEX 01 30:23:63

[ 本帖最後由 李斯特霍華 於 2008-12-13 11:13 編輯 ]
喜歡這篇文章嗎?
回覆 3
您需要登入後才可以回帖 登入 | 註冊會員

本版積分規則 回覆 15 個字以上可拿獎勵,
規則詳見此

提示訊息
go_top